yL43K.jpg

Hemingway and Gellhorn 2012 Full Movie dvd rip torrent download
Hemingway and Gellhorn 2012 Movie dvd rip download torrent
Hemingway and Gellhorn 2012 english movie torrent
 Hemingway and Gellhorn 2012 HDRip XviD-NoGRP

General
Complete name : Hemingway.and.Gellhorn.2012.HDRip.XviD-NoGRP.avi
Format : AVI
Format/Info : Audio Video Interleave
File size : 1.31 GiB
Duration : 2h 31mn
Overall bit rate : 1 231 Kbps

Video
ID : 0
Format : MPEG-4 Visual
Format profile : Advanced Simple@L5
Format settings, BVOP : 2
Format settings, QPel : No
Format settings, GMC : No warppoints
Format settings, Matrix : Default (H.263)
Codec ID : XVID
Codec ID/Hint : XviD
Duration : 2h 31mn
Bit rate : 1 089 Kbps
Width : 624 pixels
Height : 352 pixels
Display aspect ratio : 16:9
Frame rate : 29.970 fps
Color space : YUV
Chroma subsampling : 4:2:0
Bit depth : 8 bits
Scan type : Progressive
Compression mode : Lossy
Bits/(Pixel*Frame) : 0.165
Stream size : 1.16 GiB (88%)
Writing library : XviD 1.2.1 (UTC 2008-12-04)

Audio
ID : 1
Format : MPEG Audio
Format version : Version 1
Format profile : Layer 3
Codec ID : 55
Codec ID/Hint : MP3
Duration : 2h 31mn
Source duration : 2h 31mn
Bit rate mode : Constant
Bit rate : 128 Kbps
Channel(s) : 2 channels
Sampling rate : 48.0 KHz
Compression mode : Lossy
Stream size : 139 MiB (10%)
Alignment : Split accross interleaves
Interleave, duration : 24 ms (0.72 video frame)

A drama centered on the romance between Ernest Hemingway and WWII correspondent Martha Gellhorn, Hemingway’s inspiration for For Whom the Bell Tolls and the only woman who ever asked for a divorce from the writer.

OTwjU.png
AIWLj.png l
SEED 5345
LEECH 23423
SHARE IT