Company.Of.Heroes.2013 Blu-ray Movie Torrent Download

Company Of Heroes 2013 Blu-ray Movie Torrent Download, Company Of Heroes 2013  Blue ray Rip Torrent Download, Company Of Heroes 2013  Download Blu-ray Torrent, Company Of Heroes 2013  Movie Xvid BRRip Utorrent Download, Company Of Heroes 2013 Download Movie Utorrent Blu-ray, Company Of Heroes 2013  Full Blu-ray Xvid Torrent Download, Company Of Heroes 2013  Download English Movie Torrent

General
Complete name : Company.Of.Heroes.2013.BDRiP.AC3-2.0.XviD-AXED
Format : AVI
Format/Info : Audio Video Interleave
File size : 1.50 GiB
Duration : 1h 40mn
Overall bit rate : 2 135 Kbps

Video
ID : 0
Format : MPEG-4 Visual
Format profile : Advanced Simple@L5
Format settings, BVOP : 1
Format settings, QPel : No
Format settings, GMC : No warppoints
Format settings, Matrix : Default (H.263)
Codec ID : XVID
Codec ID/Hint : XviD
Duration : 1h 40mn
Bit rate : 1 744 Kbps
Width : 720 pixels
Height : 400 pixels
Display aspect ratio : 16:9
Frame rate : 23.976 fps
Color space : YUV
Chroma subsampling : 4:2:0
Bit depth : 8 bits
Scan type : Progressive
Compression mode : Lossy
Bits/(Pixel*Frame) : 0.253
Stream size : 1.22 GiB (82%)
Writing library : XviD 1.2.1 (UTC 2008-12-04)

Audio
ID : 1
Format : AC-3
Format/Info : Audio Coding 3
Mode extension : CM (complete main)
Codec ID : 2000
Duration : 1h 40mn
Bit rate mode : Constant
Bit rate : 384 Kbps
Channel(s) : 2 channels
Channel positions : Front: L R
Sampling rate : 48.0 KHz
Bit depth : 16 bits
Compression mode : Lossy
Stream size : 276 MiB (18%)
Alignment : Aligned on interleaves
Interleave, duration : 64 ms (1.54 video frames)
Interleave, preload duration : 192 ms
Title : 00001.dga PID 1100 C+L+R+SL+SR 48 1536 DELAY 0ms

SOURCE:
RA Retail Blu Ray DISC

NOTES:
I got nothing.

AXED! – We’re still lurking, out there in the darkness

Cast: Tom Sizemore, Chad Michael Collins, Vinnie Jones

Plot: American soldiers lost behind enemy lines during the WWII make a horrific discovery:
Hitler has a super bomb in development. Against all odds, they set out to find the scientist i
n charge of the program who is looking to defect.

Company.Of.Heroes.2013 torrent

SEEDS 176568

LEECHS 187676

LANGUAGE

ENGLISH

MOVIE SIZE

1.5 GB

QUALITY

BDRIP

XVID TORRENT

DOWNLOAD