Zila Ghaziabad Mobile Movie Torrent Download

Zila Ghaziabad Mobile Movie Torrent Download, Zila Ghaziabad download mobile movie torrent, Zila Ghaziabadtorrent download mobile full movie, Zila Ghaziabad download mobile movie torrent, Zila Ghaziabad download movie torrent mobile , Zila Ghaziabad dvdrip mobile movie torrent download

General
Format : AVI
Format/Info : Audio Video Interleave
File size : 693 MiB
Duration : 2h 9mn
Overall bit rate : 749 Kbps

Video
ID : 0
Format : MPEG-4 Visual
Format profile : Advanced Simple@L5
Format settings, BVOP : 2
Format settings, QPel : No
Format settings, GMC : No warppoints
Format settings, Matrix : Default (H.263)
Codec ID : XVID
Codec ID/Hint : XviD
Duration : 2h 9mn
Bit rate : 694 Kbps
Width : 608 pixels
Height : 256 pixels
Display aspect ratio : 2.40:1
Frame rate : 25.000 fps
Color space : YUV
Chroma subsampling : 4:2:0
Bit depth : 8 bits
Scan type : Progressive
Compression mode : Lossy
Bits/(Pixel*Frame) : 0.178
Stream size : 643 MiB (93%)
Writing library : XviD 1.2.1 (UTC 2008-12-04)

Audio
ID : 1
Format : MPEG Audio
Format version : Version 2
Format profile : Layer 3
Mode : Joint stereo
Mode extension : MS Stereo
Codec ID : 55
Codec ID/Hint : MP3
Duration : 2h 9mn
Bit rate mode : Constant
Bit rate : 48.0 Kbps
Channel(s) : 2 channels
Sampling rate : 22.05 KHz
Compression mode : Lossy
Stream size : 44.4 MiB (6%)
Alignment : Aligned on interleaves
Interleave, duration : 160 ms (4.00 video frames)
Interleave, preload duration : 209 ms
Title : audio

zila ghaziabad 1

zila ghaziabad 2

SEEDS 356

LEECHS 1325

LANGUAGE

HINDI

DVD SCR AND

SCAM HD

TORRENT

DVD SCR DOWNLOAD

———-

Scam DOWNLOAD