Dead End 2012 Blu-ray Movie Torrent Download

Dead End 2012 Blu-ray Movie Torrent Download, Dead End 2012 Download Blue ray Movie Torrent, Dead End 2012 Torrent Download Xvid BRRip, Dead End 2012 Hollywood Movie Blu-ray Xvid Torrent Download, Dead End 2012 Download English Movie BLUE Ray Rip Torrent

Format : AVI
Format/Info : Audio Video Interleave
File size : 701 MiB
Duration : 1h 22mn
Overall bit rate : 1 189 Kbps
Writing library : VirtualDub build 32842/release

Video
ID : 0
Format : MPEG-4 Visual
Format profile : Advanced Simple@L5
Format settings, BVOP : 4
Format settings, QPel : No
Format settings, GMC : No warppoints
Format settings, Matrix : Default (H.263)
Muxing mode : Packed bitstream
Codec ID : XVID
Codec ID/Hint : XviD
Duration : 1h 22mn
Bit rate : 1 052 Kbps
Width : 640 pixels
Height : 272 pixels
Display aspect ratio : 2.35:1
Frame rate : 25.000 fps
Color space : YUV
Chroma subsampling : 4:2:0
Bit depth : 8 bits
Scan type : Progressive
Compression mode : Lossy
Bits/(Pixel*Frame) : 0.242
Stream size : 620 MiB (88%)
Writing library : XviD 64

Audio
ID : 1
Format : MPEG Audio
Format version : Version 1
Format profile : Layer 3
Codec ID : 55
Codec ID/Hint : MP3
Duration : 1h 22mn
Bit rate mode : Constant
Bit rate : 128 Kbps
Channel(s) : 2 channels
Sampling rate : 44.1 KHz
Compression mode : Lossy
Stream size : 75.5 MiB (11%)
Alignment : Split accross interleaves
Interleave, duration : 40 ms (1.00 video frame)
Interleave, preload duration : 500 ms
Writing library : LAME3.99r
Encoding settings : -m s -V 4 -q 3 -lowpass 17 -b 128

Plot
Carl Foster takes off on a well-deserved weekend break with his family knowing only too well that focus on work has impacted his relationship with his wife, young son, and teenage step-daughter. But after a short but restful break in the journey Carl awakens to find himself tied and bound in an old roadside diner, his family trussed and gagged next to him, and a disparate group of dirty, dishevelled, vagrant-like undesirables keeping them captive. Only time will reveal who they are and what they want, but things are not everything they might seem.

Dead End 2012

Dead End 2012 Blu-ray Movie Torrent Download, Dead End 2012 Download Blue ray Movie Torrent, Dead End 2012 Torrent Download Xvid BRRip, Dead End 2012 Hollywood Movie Blu-ray Xvid Torrent Download, Dead End 2012 Download English Movie BLUE Ray Rip Torrent

SEEDS 36765

LEECHS 45342

LANGUAGE

ENGLISH

MOVIE SIZE

688 MB

QUALITY

DVDRIP XVID

TORRENT

DOWNLOAD