Captain Phillips 2013 BluRay Movie Torrent Download

Captain Phillips 2013

Captain Phillips 2013 BluRay Movie Torrent Download, Captain Phillips 2013  blueray torrent download, Captain Phillips 2013 utorrent download bluray movie, Captain Phillips 2013 torrent movie download blueray xvid, Captain Phillips 2013  download for torrent bluray movie, Captain Phillips 2013 brrip torrent download, Captain Phillips 2013 download for torrent brrip xvid movie

he true story of Captain Richard Phillips and the 2009 hijacking by Somali pirates of the US-flagged MV Maersk Alabama, the first American cargo ship to be hijacked in two hundred years.

Director: Paul Greengrass
Writers: Billy Ray (screenplay), Richard Phillips (based upon the book “A Captain’s Duty: Somali Pirates, Navy SEALS, and Dangerous Days at Sea” by)
Stars: Tom Hanks, Barkhad Abdi, Barkhad Abdirahman
Genres: Action | Adventure | Biography | Crime | Drama | Thriller
Country: USA
Language: English | Somali

Captain Phillips 2013 WEBRip x264 AC3-MiLLENiUM

General

Source……………: 720p.HDR6.AC3.H264-N.E.T.ism [THANKS]
Sample Included……: yes
Subtitles…………: Chinese Hardcoded throughout

General
Complete name : Captain Phillips 2013 WEBRip x264 AC3-MiLLENiUM.mkv
Format : Matroska
Format version : Version 2
File size : 1.06 GiB
Duration : 2h 13mn
Overall bit rate mode : Variable
Overall bit rate : 1 136 Kbps
Encoded date : UTC 2013-11-29 15:13:41
Writing application : mkvmerge v6.5.0 (‘Isn’t she lovely’) built on Oct 20 2013 12:50:05
Writing library : libebml v1.3.0 + libmatroska v1.4.1

Video
ID : 1
Format : AVC
Format/Info : Advanced Video Codec
Format profile : High@L4.1
Format settings, CABAC : Yes
Format settings, ReFrames : 3 frames
Codec ID : V_MPEG4/ISO/AVC
Duration : 2h 13mn
Bit rate mode : Variable
Bit rate : 730 Kbps
Maximum bit rate : 40.0 Mbps
Width : 720 pixels
Height : 384 pixels
Display aspect ratio : 1.85:1
Frame rate mode : Constant
Frame rate : 30.000 fps
Color space : YUV
Chroma subsampling : 4:2:0
Bit depth : 8 bits
Scan type : Progressive
Bits/(Pixel*Frame) : 0.088
Stream size : 698 MiB (64%)
Writing library : x264 core 140 r2377 1ca7bb9

Audio
ID : 2
Format : AC-3
Format/Info : Audio Coding 3
Mode extension : CM (complete main)
Format settings, Endianness : Big
Codec ID : A_AC3
Duration : 2h 13mn
Bit rate mode : Constant
Bit rate : 384 Kbps
Channel(s) : 2 channels
Channel positions : Front: L R
Sampling rate : 48.0 KHz
Bit depth : 16 bits
Compression mode : Lossy
Delay relative to video : 7ms
Stream size : 367 MiB (34%)
Language : English
Default : Yes
Forced : No

SEEDS 67555

LEECHS 135454

LANGUAGE

ENGLISH

SIZE

703

TORRET DOWNLOAD